Jordana Largy | Dragon Ball GT / Doragon bru GT | 12:07 ansehen bei Nowvideo








Info

Visioni private


7.1
IMDB: 7.1/10 8 votes

Durata: 100 min

Released:

Anno: 18 Nov 1989

Direttore:

Premi: 1 nomination.

Stato: Released

Paese: Italy

Cast:




Virginia è convinta che il produttore Petronio la sceglierà per il ruolo di protagonista nel suo nuovo film. La cosa non avviene e Petronio viene trovato morto. Boris, fidanzato di Virginia, sospetta della ragazza. Girato durante il Festival di Taormina del 1988 a sei mani (il critico Donald Ranvaud, il regista Francesco Calogero, l’attore Ninni Bruschetta), è poco più di un simpatico divertissement dietro le quinte, con comparsate varie (da Tatti Sanguineti a Cyd Charisse!).

Trailer


Upload on Youtube

Info File

Format : AVI
Format/Info : Audio Video Interleave
File size : 686 MiB
Duration : 1h 32mn
Overall bit rate : 1 041 Kbps
Writing application : Lavf55.19.104

Video
ID : 0
Format : xvid
Codec ID : xvid
Duration : 1h 32mn
Bit rate : 901 Kbps
Width : 512 pixels
Height : 384 pixels
Display aspect ratio : 4:3
Frame rate : 25.000 fps
Bits/(Pixel*Frame) : 0.183
Stream size : 594 MiB (87%)

Audio
ID : 1
Format : MPEG Audio
Format version : Version 1
Format profile : Layer 3
Mode : Joint stereo
Mode extension : MS Stereo
Codec ID : 55
Codec ID/Hint : MP3
Duration : 1h 32mn
Bit rate mode : Constant
Bit rate : 128 Kbps
Channel(s) : 2 channels
Sampling rate : 44.1 KHz
Compression mode : Lossy
Stream size : 84.4 MiB (12%)
Alignment : Aligned on interleaves
Interleave, duration : 26 ms (0.65 video frame)
Interleave, preload duration : 2

Trackers

http://tracker.publicbt.com:80/
http://tracker.istole.it:80/
http://open.demonii.com:1337/scrape
http://tracker.tntvillage.scambioetico.org:2710/scrape
http://tracker.coppersurfer.tk:6969/scrape
http://tracker.openbittorrent.com/scrape

Torrent correlati

Torrent Name Dimm. Creato Seed Leech
comment icon

[PC] Sacred 3

Creato da:   In: Giochi > PC
17.42 Gb 5 mesi fa 0 2
comment icon
1.76 Gb 9 mesi fa 11 1
comment icon
1.53 Gb 3 mesi fa 0 0
comment icon
4.18 Gb 3 mesi fa 3 0
comment icon
19.25 Gb 6 mesi fa 13 6