Ouvir e Baixar | Oglądaj | Örümcek-Adam: Eve Dönüş Full HD izle








Info

Rise of the Planet of the Apes


7.6
IMDB: 7.6/10 414,001 votes

Durata: 105 min

Released:

Anno: 05 Aug 2011

Direttore:

Premi: Nominated for 1 Oscar. Another 20 wins & 41 nominations.

Budget: 93000000$

Incassi: 482860185$

Stato: Released

Paese: USA

Tagline: Un prequel-reboot che unisce passato e futuro

Cast:




Nei laboratori di un’azienda farmaceutica di San Francisco, il giovane ricercatore Will Rodman sperimenta su degli scimpanzé gli effetti di un virus in grado di potenziare i ricettori neuronali e di fornire una possibile cura per l’Alzheimer. Una di queste cavie mostra lo sviluppo di un’intelligenza superiore alla media, ma viene abbattuta assieme alle altre dichiarando fallito l’esperimento quando risponde con aggressività ai tentativi dei medici di sottoporla a nuovi test. Lascia tuttavia nei laboratori un piccolo cucciolo, che Will decide di risparmiare alla soppressione e di accogliere in casa propria. Il tempo passa e dopo qualche anno lo scimpanzé, soprannominato Cesare, dimostra delle straordinarie capacità cognitive, imparando in fretta il linguaggio dei segni e raddoppiando il proprio quoziente intellettivo anno dopo anno. Ma con il suo cervello, cresce anche il bisogno di relazionarsi con un ambiente libero e con una specie all’altezza che non lo tratti da bestia o da mostro.

Trailer


Upload on Youtube

Info File

Video
ID : 1
Format : HEVC
Format/Info : High Efficiency Video Coding
Format profile : [email protected]@Main
Codec ID : V_MPEGH/ISO/HEVC
Duration : 1h 44mn
Bit rate : 2 973 Kbps
Width : 1 280 pixels
Height : 544 pixels
Display aspect ratio : 2.35:1
Frame rate mode : Constant
Frame rate : 23.976 (24000/1001) fps
Color space : YUV
Chroma subsampling : 4:2:0
Bit depth : 8 bits
Bits/(Pixel*Frame) : 0.178
Stream size : 2.18 GiB (70%)
Writing library : x265 1.9:[Windows][GCC 5.2.0][64 bit] 8bit
Encoding settings : wpp / ctu=64 / min-cu-size=8 / max-tu-size=32 / tu-intra-depth=3 / tu-inter-depth=3 / me=2 / subme=4 / merange=57 / no-rect / no-amp / max-merge=3 / temporal-mvp / no-early-skip / rdpenalty=0 / no-tskip / no-tskip-fast / strong-intra-smoothing / no-lossless / no-cu-lossless / no-constrained-intra / fast-intra / open-gop / no-temporal-layers / interlace=0 / keyint=250 / min-keyint=23 / scenecut=40 / rc-lookahead=40 / lookahead-slices=0 / bframes=8 / bframe-bias=0 / b-adapt=2 / ref=5 / limit-refs=1 / limit-modes / weightp / weightb / aq-mode=1 / qg-size=32 / aq-strength=2.00 / cbqpoffs=0 / crqpoffs=0 / rd=4 / psy-rd=1.00 / rdoq-level=0 / psy-rdoq=0.00 / signhide / deblock=-1:-1 / sao / no-sao-non-deblock / b-pyramid / no-cutree / no-intra-refresh / rc=crf / crf=20.4 / qcomp=0.60 / qpmin=0 / qpmax=51 / qpstep=4 / vbv-maxrate=12000 / vbv-bufsize=12000 / crf-max=0.0 / ipratio=1.40 / pbratio=1.30
Default : Yes
Forced : No
Color range : Limited
Matrix coefficients : BT.709

Audio #1
ID : 2
Format : AC-3
Format/Info : Audio Coding 3
Mode extension : CM (complete main)
Format settings, Endianness : Big
Codec ID : A_AC3
Duration : 1h 44mn
Bit rate mode : Constant
Bit rate : 640 Kbps
Channel(s) : 6 channels
Channel positions : Front: L C R, Side: L R, LFE
Sampling rate : 48.0 KHz
Frame rate : 31.250 fps (1536 spf)
Compression mode : Lossy
Stream size : 480 MiB (15%)
Title : AC3 5.1
Language : Italian
Default : Yes
Forced : No

Immagini

L’alba del pianeta delle scimmie (2011), [BDrip 720p – H265 – Ita Eng Ac3 5.1 – Sub Ita Eng]
L’alba del pianeta delle scimmie (2011), [BDrip 720p – H265 – Ita Eng Ac3 5.1 – Sub Ita Eng]
L’alba del pianeta delle scimmie (2011), [BDrip 720p – H265 – Ita Eng Ac3 5.1 – Sub Ita Eng]
L’alba del pianeta delle scimmie (2011), [BDrip 720p – H265 – Ita Eng Ac3 5.1 – Sub Ita Eng]
L’alba del pianeta delle scimmie (2011), [BDrip 720p – H265 – Ita Eng Ac3 5.1 – Sub Ita Eng]
L’alba del pianeta delle scimmie (2011), [BDrip 720p – H265 – Ita Eng Ac3 5.1 – Sub Ita Eng]
L’alba del pianeta delle scimmie (2011), [BDrip 720p – H265 – Ita Eng Ac3 5.1 – Sub Ita Eng]
L’alba del pianeta delle scimmie (2011), [BDrip 720p – H265 – Ita Eng Ac3 5.1 – Sub Ita Eng]
L’alba del pianeta delle scimmie (2011), [BDrip 720p – H265 – Ita Eng Ac3 5.1 – Sub Ita Eng]
L’alba del pianeta delle scimmie (2011), [BDrip 720p – H265 – Ita Eng Ac3 5.1 – Sub Ita Eng]
L’alba del pianeta delle scimmie (2011), [BDrip 720p – H265 – Ita Eng Ac3 5.1 – Sub Ita Eng]
L’alba del pianeta delle scimmie (2011), [BDrip 720p – H265 – Ita Eng Ac3 5.1 – Sub Ita Eng]
L’alba del pianeta delle scimmie (2011), [BDrip 720p – H265 – Ita Eng Ac3 5.1 – Sub Ita Eng]
L’alba del pianeta delle scimmie (2011), [BDrip 720p – H265 – Ita Eng Ac3 5.1 – Sub Ita Eng]
L’alba del pianeta delle scimmie (2011), [BDrip 720p – H265 – Ita Eng Ac3 5.1 – Sub Ita Eng]
L’alba del pianeta delle scimmie (2011), [BDrip 720p – H265 – Ita Eng Ac3 5.1 – Sub Ita Eng]
L’alba del pianeta delle scimmie (2011), [BDrip 720p – H265 – Ita Eng Ac3 5.1 – Sub Ita Eng]
L’alba del pianeta delle scimmie (2011), [BDrip 720p – H265 – Ita Eng Ac3 5.1 – Sub Ita Eng]
L’alba del pianeta delle scimmie (2011), [BDrip 720p – H265 – Ita Eng Ac3 5.1 – Sub Ita Eng]

Trackers

http://tracker.istole.it:80/
http://tracker.publicbt.com:80/
http://tracker.tntvillage.scambioetico.org:2710/scrape
http://open.demonii.com:1337/scrape
http://tracker.coppersurfer.tk:6969/scrape
http://tracker.openbittorrent.com/scrape